(navigation image)
Home Audio Books & Poetry | Community Audio | Computers & Technology | Grateful Dead | Live Music Archive | Music, Arts & Culture | Netlabels | News & Public Affairs | Non-English Audio | Podcasts | Radio Programs | Spirituality & Religion | The Shady Trees
Search: Advanced Search
Anonymous User (login or join us)
Upload

Listen to audio

item image

Stream (help[help])

VBR M3U
MP3 via M3U

Play / Download (help[help])

VBR ZIP

Ogg Vorbis

Lossless zip


All Files: HTTPS Torrent (2/0)

Resources

Bookmark

Club d'ElfClub d'Elf Live at Club Helsinki on 2012-11-16 (November 16, 2012)

something has gone horribly wrong 8-p
Prefer flash? · Embed · Questions/Feedback?


Collection: ClubdElf
Band/Artist: Club d'Elf
Date: November 16, 2012 (check for other copies)
Venue: Club Helsinki
Location: Hudson, NY

Source: DPA 4023>Lunatec V3>AD2K>Tascam HD-P2(24bit/48khz)
Lineage: WAV>USB>Macbook Pro>Wave Editor(tracking,fades,resample(izotope)/dither(mbit+)to 16 bit/44.1k)>XAct(FLAC 8,ffp,fix sbe)
Taped by: John Lynch
Transferred by: Andy Murray


Notes

Club d'Elf
2012-11-16
Club Helsinki
Hudson, NY

Recorded by John Lynch

Transferred by Andy Murray

5' from stage clamped to center front table ORTF

DPA 4023>Lunatec V3>AD2K>Tascam HD-P2(24bit/48khz)

WAV>USB>Macbook Pro>Wave Editor(tracking,fades,resample(izotope)/dither(mbit+)to 16 bit/44.1k)>XAct(FLAC 8,ffp,fix sbe)

Opening set by Jerry Leake

John Medeski (keyboards & flutes)
Duke Levine (guitar)
Brahim Fribgane (oud, voice & percussion)
Mister Rourke, (turntables)
Mike Rivard (bass, sintir & bass kalimba)
Dean Johnston (drums)
Thomas Workman (flutes)

The V3 battery failed during d1t12 so I faded the tune out during that track and cut the silence and the same song continues fading back in as d1t13. Approximately 50 seconds to a minute of music is missing. Otherwise the set is complete. No other tapers were present so this is the only source.

1 Set

length expanded size cdr WAVE problems fmt ratio filename
1:02.26 10997996 B --- -- ----- wav 1.0000 delf2012-11-16_dpa4023_1644_d1t01.wav
15:48.07 167243708 B --- -- ----- wav 1.0000 delf2012-11-16_dpa4023_1644_d1t02.wav
7:52.13 83291420 B --- -- ----- wav 1.0000 delf2012-11-16_dpa4023_1644_d1t03.wav
8:43.74 92431292 B --- -- ----- wav 1.0000 delf2012-11-16_dpa4023_1644_d1t04.wav
13:58.40 147917324 B --- -- ----- wav 1.0000 delf2012-11-16_dpa4023_1644_d1t05.wav
9:59.44 105767132 B --- -- ----- wav 1.0000 delf2012-11-16_dpa4023_1644_d1t06.wav
13:21.41 141392876 B --- -- ----- wav 1.0000 delf2012-11-16_dpa4023_1644_d1t07.wav
3:10.25 33574844 B --- -- ----- wav 1.0000 delf2012-11-16_dpa4023_1644_d1t08.wav
15:31.10 164251964 B --- -- ----- wav 1.0000 delf2012-11-16_dpa4023_1644_d1t09.wav
13:24.69 141987932 B --- -- ----- wav 1.0000 delf2012-11-16_dpa4023_1644_d1t10.wav
16:21.35 173130764 B --- -- ----- wav 1.0000 delf2012-11-16_dpa4023_1644_d1t11.wav
8:22.49 88668092 B --- -- ----- wav 1.0000 delf2012-11-16_dpa4023_1644_d1t12.wav
11:49.56 125199356 B --- -- ----- wav 1.0000 delf2012-11-16_dpa4023_1644_d1t13.wav
13:25.18 142044380 B --- -- ----- wav 1.0000 delf2012-11-16_dpa4023_1644_d1t14.wav
3:42.07 39177308 B --- -- ----- wav 1.0000 delf2012-11-16_dpa4023_1644_d1t15.wav
156:33.64 1657076388 B 1.0000 (15 files)

Individual Files

Audio Files Flac VBR MP3 Ogg Vorbis
d1t01 3.4 MB
1.3 MB
663.5 KB
d1t02 68.8 MB
20.4 MB
10.1 MB
d1t03 37.4 MB
10.5 MB
5.1 MB
d1t04 46.9 MB
12.3 MB
6.2 MB
d1t05 70.7 MB
18.6 MB
9.1 MB
d1t06 57.4 MB
13.4 MB
6.7 MB
d1t07 75.5 MB
18.7 MB
9.4 MB
d1t08 11.8 MB
4.6 MB
2.3 MB
d1t09 60.9 MB
19.6 MB
9.6 MB
d1t10 69.1 MB
18.5 MB
9.0 MB
d1t11 74.8 MB
21.9 MB
10.7 MB
d1t12 42.3 MB
11.4 MB
5.7 MB
d1t13 69.9 MB
16.2 MB
8.1 MB
d1t14 60.9 MB
17.6 MB
8.7 MB
d1t15 13.7 MB
5.3 MB
2.7 MB
Information FormatSize
delf2012-11-16.dpa4023_16bit.ffp Flac FingerPrint 1.1 KB
delf2012-11-16.dpa4023_16bit.md5 Checksums 1.1 KB
delf2012-11-16.dpa4023_16bit_files.xml Metadata [file]
delf2012-11-16.dpa4023_16bit_meta.xml Metadata 4.6 KB
delf2012-11-16.dpa4023_16bit_reviews.xml Metadata 745.0 B
Other Files Archive BitTorrent Text
delf2012-11-16.dpa4023_16bit_archive.torrent 31.6 KB
delf2012-11-16_dpa4023_1644_ffp.txt 1.1 KB
delf2012-11-16_dpa4023_1644_info.txt 3.6 KB

Write a review
Downloaded 193 times
Reviews
Average Rating: 4.00 out of 5 stars4.00 out of 5 stars4.00 out of 5 stars4.00 out of 5 stars

Reviewer: mattBass - 4.00 out of 5 stars4.00 out of 5 stars4.00 out of 5 stars4.00 out of 5 stars - January 14, 2013
Subject: another great masterpiece
Great recording quality and performance. This version of Mogador (d1t5) is one of the best I've heard. As always thanks to the band, John and Andy.

I'd have given this show 5 stars if the recording battery hadn't died. That's no-ones fault really, just trying to help organize the archive.